0 Members and 1 Guest are viewing this topic.

Kolkata Bangla Movies | March 02, 2014, 02:05:01 AM
Jadi Love Dile Na Praane (2014) - 1CD - SCamp Rip - Mpeg

Pherarim

  • Senior Member
  • ****
  • 262
    Posts
Jadi Love Dile Na Praane (2014) - 1CD - SCamp Rip - Mpeg
« on: March 02, 2014, 02:05:01 AM »
[center:1xy2dv0p]Jadi Love Dile Na Praane (2014) - 1CD - SCamp Rip - Mpeg










Genre: Drama, Romance

Release Date: 28th February, 2014



Abir Chatterjee
Ananya Chatterjee
Arjun Chakraborty
Kaushik Ganguly
Kaushik Sen
Tridha Chowdhury
Alokananda Roy
Aparajita Ghosh
 &
others...



General
Format                                   : MPEG-PS
File size                                : 700 MiB
Duration                                 : 2h 3mn
Overall bit rate mode                    : Variable
Overall bit rate                         : 790 Kbps

Video
ID                                       : 224 (0xE0)
Format                                   : MPEG Video
Format version                           : Version 2
Format profile                           : [email protected]
Format settings, BVOP                    : Yes
Format settings, Matrix                  : Custom
Format settings, GOP                     : Variable
Duration                                 : 2h 3mn
Bit rate mode                            : Variable
Bit rate                                 : 714 Kbps
Width                                    : 352 pixels
Height                                   : 288 pixels
Display aspect ratio                     : 4:3
Frame rate                               : 29.970 fps
Standard                                 : PAL
Color space                              : YUV
Chroma subsampling                       : 4:2:0
Bit depth                                : 8 bits
Scan type                                : Progressive
Compression mode                         : Lossy
Bits/(Pixel*Frame)                       : 0.235
Stream size                              : 629 MiB (90%)


Audio
ID                                       : 192 (0xC0)
Format                                   : MPEG Audio
Format version                           : Version 1
Format profile                           : Layer 2
Duration                                 : 2h 3mn
Bit rate mode                            : Constant
Bit rate                                 : 64.0 Kbps
Channel(s)                               : 2 channels
Sampling rate                            : 48.0 KHz
Compression mode                         : Lossy
Stream size                              : 56.7 MiB (8%)

Thumbnail









You are not allowed to view links. Register or Login
Or
You are not allowed to view links. Register or Login
Or
You are not allowed to view links. Register or Login
Or
You are not allowed to view links. Register or Login
Or
You are not allowed to view links. Register or Login
Or
You are not allowed to view links. Register or Login
Or
You are not allowed to view links. Register or Login
Or
You are not allowed to view links. Register or Login
Or
You are not allowed to view links. Register or Login
Or
You are not allowed to view links. Register or Login
Or
You are not allowed to view links. Register or Login



[/center:1xy2dv0p]
« Last Edit: January 01, 1970, 06:00:00 AM by Guest »

 

Related Topics

  Subject / Started by Replies Last post
0 Replies
346 Views
Last post February 12, 2014, 02:11:07 AM
by Pherarim
0 Replies
508 Views
Last post February 12, 2014, 09:52:41 PM
by Pherarim
0 Replies
327 Views
Last post February 18, 2014, 11:59:13 AM
by Pherarim
1 Replies
1265 Views
Last post April 30, 2016, 02:14:34 PM
by AliEl
0 Replies
379 Views
Last post July 01, 2014, 08:07:29 AM
by Pherarim